• Hi Guest: Welcome to TRIBE, the online home of TRIBE MAGAZINE. If you'd like to post here, or reply to existing posts on TRIBE, you first have to register. Join us!

voytek - no imagination (hard/psytrance)

voytek

TRIBE Member
Due to a crisis of imagination, I've decided that The Chronic of AT-AT: the Skunk, the Bitch and the Bongload is as good as any title I could possibly come up with for this 60 min. bundle of joy.

Here, this is the titles of songs section:

Illumination vs. Ultravoice - Imagination (Com.pact)
Xerox and Illumination - Paranoia (HOMmega)
Chakra - Atomic Base (Hitmania)
Wizzy Noise – Haiku RMX (Spun)
Psysex - Bionic Bong (GMS RMX) (HOMmega)
Delirious – Innerface (HOMmega)
Cosmic Tone - Like a Dream (Com.pact)
Astrix – Scientific Reality (HOMmega)
Oforia - High Gear (Yoyo)
Black & White - Fireworks (Crystal Matrix)
Tikal - Time is Running Out (Neurobiotic)

This is the trippy picture section:


Many thanks to my OTIS for the gear, the recording and the mastering, not to mention the storage. This one goes out to the you.
 
tribe cannabis goldsmith - gold cannabis accessories

xtcfreak

TRIBE Member
^^^^ agreed!

Had a listen on my commute to work, love it! Every mix I hear makes me love this stuff more and more. I am really digging the faster hard stuff. Cant wait to hear more!

Are all those tracks CD's?

Jay
 

voytek

TRIBE Member
hey, thanks for grabbing it guys (except jib, who can go fuck a goat in hell) - it is all cds, and me be happy you like. there will be a couple more longer mixes coming out within the next two weeks...
 

OTIS

TRIBE Member
Been listening to this all week in the car. Can't get enuff.

Super props to the proper set by the one like the Voytek (not Voytek, but someone just like him -it's uncanny)
 
tribe cannabis accessories silver grinders

deep

TRIBE Member
fun stuff homey. took this one to the gym and will do so again. props on the event horizon sample.
 
tribe cannabis goldsmith - gold cannabis accessories

voytek

TRIBE Member
getting ready for a longer followup, on a more melodic yet still hard tip... so, this one might not be up for much longer... share it with others pls and thanks for listening!
 

Stan

TRIBE Member
I've been experimenting with a CUE splitter program, so I made a CUE file for this mix. Just copy and paste into a text file and name the file with a .cue extension:

Code:
TITLE "No Imagination"
PERFORMER "Voytek"
FILE "Voytek_-_Psy_Demo.mp3" MP3
  TRACK 01 AUDIO
    TITLE "Imagination"
    PERFORMER "Illumination vs. Ultravoice"
    INDEX 01 00:00:00
  TRACK 02 AUDIO
    TITLE "Paranoia"
    PERFORMER "Xerox and Illumination"
    INDEX 01 06:53:00
  TRACK 03 AUDIO
    TITLE "Atomic Base"
    PERFORMER "Chakra"
    INDEX 01 11:38:00
  TRACK 04 AUDIO
    TITLE "Haiku RMX"
    PERFORMER "Wizzy Noise"
    INDEX 01 16:58:00
  TRACK 05 AUDIO
    TITLE "Bionic Bong (GMS RMX)"
    PERFORMER "Psysex"
    INDEX 01 23:55:00
  TRACK 06 AUDIO
    TITLE "Innerface"
    PERFORMER "Delirious"
    INDEX 01 29:32:00
  TRACK 07 AUDIO
    TITLE "Like a Dream"
    PERFORMER "Cosmic Tone"
    INDEX 01 35:29:50
  TRACK 08 AUDIO
    TITLE "Scientific Reality"
    PERFORMER "Astrix"
    INDEX 01 40:34:00
  TRACK 09 AUDIO
    TITLE "High Gear"
    PERFORMER "Oforia"
    INDEX 01 46:21:00
  TRACK 10 AUDIO
    TITLE "Fireworks"
    PERFORMER "Black & White"
    INDEX 01 52:01:50
  TRACK 11 AUDIO
    TITLE "Time is Running Out"
    PERFORMER "Tikal"
    INDEX 01 56:13:00
 

voytek

TRIBE Member
thanks a lot stanski! ima go through this and see if you caught the beginings of mixings correctly... you probably did though, seeing how these ain't exactly obscure tunes...
 
tribe cannabis goldsmith - gold cannabis accessories

voytek

TRIBE Member
thanks agains guyses... ... mixin the follow-up in a few minutes - back-breaking work that is... here's a tentative tracklist. let's hope it works out as well in practice as it did in my head and in my warm-up session:

Rumble Pack - The Sliph
Tikal – Mr. Pink
Psysex – Alien Cop (Eskimo RMX)
Astrix – Monster Remix
Wizzy Noise – Epocwave
Electric Universe – The Prayer
Optokoppler – Straight
Ibojima – Apollo Project
Dizzy Mind – Stop It
Oktokoppler – Persia
Black and White – Music Is
Astrix – Fire
Shanti – Alter Ego
Talamasca – Overload

yes, it's another top 40 of psytrance kinda mix, but I love how all these tunes have many elements of the good old days of hard trance I used to spin...
 
Last edited:

joey

TRIBE Member
voytek said:
yes, it's another top 40 of psytrance kinda mix, but I love how all these tunes have many elements of the good old days of hard trance I used to spin...
now you have a lot to live up to mang
 

xtcfreak

TRIBE Member
voytek said:
thanks agains guyses... ... mixin the follow-up in a few minutes - back-breaking work that is... here's a tentative tracklist. let's hope it works out as well in practice as it did in my head and in my warm-up session:

Rumble Pack - The Sliph
Tikal – Mr. Pink
Psysex – Alien Cop (Eskimo RMX)
Astrix – Monster Remix
Wizzy Noise – Epocwave
Electric Universe – The Prayer
Optokoppler – Straight
Ibojima – Apollo Project
Dizzy Mind – Stop It
Oktokoppler – Persia
Black and White – Music Is
Astrix – Fire
Shanti – Alter Ego
Talamasca – Overload

yes, it's another top 40 of psytrance kinda mix, but I love how all these tunes have many elements of the good old days of hard trance I used to spin...
So Where is it? :)

Jay
 
tribe cannabis accessories silver grinders
Top