• Hi Guest: Welcome to TRIBE, Toronto's largest and longest running online community. If you'd like to post here, or reply to existing posts on TRIBE, you first have to register on the forum. You can register with your facebook ID or with an email address. Join us!

VINYL JUNKIES - 2AM in Toronto [Dirty House]

v-man

TRIBE Member
Part One of a Two part in Toronto seris, 8AM in Toronto to follow in the next few weeks. Enjoy, www.vinyljunkies.ca

R.Sanchez -Turn on the Music (Axwell Mix) [Stealth]
Planet Funk - Stop Me (King Unique Dub Mix) [Bustin' Loose Recordings]
Addy and Paranoid Jack - Movin [Thrust UK]
Roog and Greg - Uber (D.Ramirez Mix) [Toolroom Trax]
Celeda - The underground (Jesse Garcia 2005 Mix) [Vendetta Records (Spain)]
Paul Woolford - vertigo [Junior Boy's Own]
Ritimo Dynamico - Calinda 2005 (Laurant Wolf Mix) [Xtravaganza Recordings]
Holves Eves - 8 Letters (Tommyboy Mix) [Shinichi]
Plastic Dreams vs. Diamonds Life (Unknown Remix) [White]
London 909 - Shake yer Boody (Chus and Ceballos Mix) [CDR]
Dave Spoon - 21st Century (DJ Fist Mix) [Toolroom Trax]
Different Gear - A little Paranoid [City Rockers]

Download here :
http://www.vinyljunkies.ca/music/Sets/VinylJunkies-2AM_In_Toronto.mp3 Save Target as....

Mixed and Compiled by VINYLJUNKIES (www.vinyljunkies.ca)
Mastered by DJ Fabian Strong (www.manzoneandstrong.com)
 

chinamon

TRIBE Member
dear vince and val:
i have been hearing about you guys releasing a mix since the summer time and have been waiting since then. i finally got to listen to this and i am extremely impressed. it is no wonder that you two guys get residencies are some of toronto's hottest spots. you never fail to keep us moving at the club or at the summer pool parties. :D
this is a mix that everyone should listen to.
maybe i will see you guys this saturday... vinyl junkies & carlo lio on the decks!!!

working on a simple cuesheet for this set at the moment. stay tuned.
 

chinamon

TRIBE Member
here is a super rough draft for a cuesheet.
the reason why i say it is rough is because whenever i FF or RW in winamp the track time would get thrown off a little bit. feel free to edit this however you'd like.

cuesheet starts here
============================================
PERFORMER "Vinyl Junkies"
TITLE "2am In Toronto"
FILE "Vinyl Junkies - 2AM In Toronto.mp3" MP3
TRACK 01 AUDIO
TITLE "Intro"
PERFORMER "NA"
INDEX 01 00:00:00
TRACK 02 AUDIO
TITLE "Turn On The Music (Axwell Mix)"
PERFORMER "Roger Sanchez"
INDEX 01 00:10:00
TRACK 03 AUDIO
TITLE "Stop Me (King Unique Dub Mix)"
PERFORMER "Planet Funk"
INDEX 01 06:35:00
TRACK 04 AUDIO
TITLE "Movin"
PERFORMER "Addy and Paranoid Jack"
INDEX 01 12:05:00
TRACK 05 AUDIO
TITLE "Uber (D. Ramirez Mix)"
PERFORMER "Roog and Greg"
INDEX 01 18:49:00
TRACK 06 AUDIO
TITLE "The Underground (Jesse Garcia 2005 Mix)"
PERFORMER "Celeda"
INDEX 01 24:30:00
TRACK 07 AUDIO
TITLE "Vertigo"
PERFORMER "Paul Woolford"
INDEX 01 29:23:00
TRACK 08 AUDIO
TITLE "Calinda 2005 (Laurent Wolf Mix)"
PERFORMER "Ritimo Dynamico"
INDEX 01 34:54:00
TRACK 09 AUDIO
TITLE "8 Letters (Tommyboy Mix)"
PERFORMER "Holmes Ives featuring Avalon Frost"
INDEX 01 42:20:00
TRACK 10 AUDIO
TITLE "Plastic Dreams vs Diamond Life (Whitelabel)"
PERFORMER "Unknown"
INDEX 01 48:58:00
TRACK 11 AUDIO
TITLE "Shake Your Booty (Chus and Ceballos Mix)"
PERFORMER "London 909"
INDEX 01 56:14:00
TRACK 12 AUDIO
TITLE "21st Century (DJ Fist Mix)"
PERFORMER "Dave Spoon"
INDEX 01 63:55:00
TRACK 13 AUDIO
TITLE "A Little Paranoid"
PERFORMER "Different Gear"
INDEX 01 69:58:00
============================================
cuesheet ends here
 

tobywan

TRIBE Member
downloaded this last night, and this set will accompany me this weekend to mont tremblant...solid tracklisting gents!
 

Richard Raiban

TRIBE Member
Originally posted by chinamon
dear vince and val:
i have been hearing about you guys releasing a mix since the summer time and have been waiting since then. i finally got to listen to this and i am extremely impressed. it is no wonder that you two guys get residencies are some of toronto's hottest spots. you never fail to keep us moving at the club or at the summer pool parties. :D
this is a mix that everyone should listen to.
maybe i will see you guys this saturday... vinyl junkies & carlo lio on the decks!!!

working on a simple cuesheet for this set at the moment. stay tuned.
val...a new alias? LOL!!!
























































kidding :p

i heard this mix months ago priop to it being mastered courtesy of DJ Val C ;)

when will part 2 be available? :D
 

VinylJunkies

TRIBE Member
Hey everyone,

We just wanted to take the time & say thanks for all the comments and kind words. The amount of support weve been receiving is unbelievable to say the least. Were very happy to say that 2AM in Toronto has been downloaded well over 1700 times & that number continues to grow with each passing day.


Again, thanks for the support we really appreciate it.

Vince & Val
 

Soulster

TRIBE Member
was just dancing in front of my bedroom mirror to this mix. sat down to catch my breath. ;)

eww i'm all sweaty now!
 
Top