• Hi Guest: Welcome to TRIBE, the online home of TRIBE MAGAZINE. If you'd like to post here, or reply to existing posts on TRIBE, you first have to register. Join us!

PVD live @ energy 2003

^NuERA^

TRIBE Member
Just got this set from the Trance Addict downloads section. Absolutely excellent! Gotta love the big summer festival sounds :D
 

Spiritual_Thang

TRIBE Member
this is an incredible set!
just picked it up from soulseek randomly.

i want to know the name of the track with the incredible buildup that peaks at about the 50 minute mark. Hearing the crowd go ape thru that buildup gave me goosebumps.

what a party that must have been....
 

SneakyPete

TRIBE Member
This set has been out for awhile now.

Cuesheet:

Code:
PERFORMER "Paul Van Dyk"
TITLE "Live @ Energy 2003"
FILE "Paul Van Dyk - Live @ Energy 2003 081003.mp3" MP3
  TRACK 01 AUDIO
    TITLE "Aftershokk"
    PERFORMER "01. Digital Pressure"
    INDEX 01 00:00:00
  TRACK 02 AUDIO
    TITLE "Introspection (John Askew Remix)"
    PERFORMER "02. Terry Bones vs Fred Baker"
    INDEX 01 02:06:00
  TRACK 03 AUDIO
    TITLE "Crush (Vandit Dub)"
    PERFORMER "03. Paul van Dyk vs Second Sun"
    INDEX 01 04:58:00
  TRACK 04 AUDIO
    TITLE "Spirits (Cosmicman Remix)"
    PERFORMER "04. Modulation"
    INDEX 01 11:23:00
  TRACK 05 AUDIO
    TITLE "Carrera 2 (Nu-NRG Remix)"
    PERFORMER "05. Three Drives"
    INDEX 01 15:48:00
  TRACK 06 AUDIO
    TITLE "Time Of Our Lives (Club Mix)"
    PERFORMER "06. Paul van Dyk ft. Vega 4"
    INDEX 01 20:16:00
  TRACK 07 AUDIO
    TITLE "Answers"
    PERFORMER "07. David Forbes"
    INDEX 01 25:54:00
  TRACK 08 AUDIO
    TITLE "We Are Connected (Marcos pres. Sunfire Remix)"
    PERFORMER "08. Rafferty & Kershaw"
    INDEX 01 30:43:00
  TRACK 09 AUDIO
    TITLE "Reflections"
    PERFORMER "09. Paul van Dyk"
    INDEX 01 35:32:00
  TRACK 10 AUDIO
    TITLE "Weekend Wonder (Donald & Giles Mix)"
    PERFORMER "10. Donald & Giles"
    INDEX 01 40:07:00
  TRACK 11 AUDIO
    TITLE "For A Revolt (Bootleg)"
    PERFORMER "11. Paul van Dyk vs Marco V"
    INDEX 01 45:09:00
  TRACK 12 AUDIO
    TITLE "Independance (Stadium Mix)"
    PERFORMER "12. Jonesey"
    INDEX 01 47:47:00
  TRACK 13 AUDIO
    TITLE "Timeless (Ron van den Beuken Remix)"
    PERFORMER "13. Ron van den Beuken"
    INDEX 01 53:01:00
  TRACK 14 AUDIO
    TITLE "The Crowd Song (Paul van Dyk Rework)"
    PERFORMER "14. Rhythm Gangstar"
    INDEX 01 56:42:00
  TRACK 15 AUDIO
    TITLE "Born Slippy (Paul van Dyk Remix)"
    PERFORMER "15. Underworld"
    INDEX 01 59:32:00
  TRACK 16 AUDIO
    TITLE "Nothing But You (Original Mix)"
    PERFORMER "16. Paul van Dyk"
    INDEX 01 64:37:00
  TRACK 17 AUDIO
    TITLE "Connected (Original Mix)"
    PERFORMER "17. Paul van Dyk"
    INDEX 01 70:57:00
 
tribe cannabis accessories silver grinders
Top