• Hi Guest: Welcome to TRIBE, the online home of TRIBE MAGAZINE. If you'd like to post here, or reply to existing posts on TRIBE, you first have to register. Join us!

Plump djs-elastic breaks

Alex D. from TRIBE on Utility Room

funkNstyle

TRIBE Member
Plump Dj's - "Remember My Name"
Elektronauts - "Bumper" (plump djs rmx)
Krafty Kuts - "Dangerous" (Instrumental mix)
Freq Nasty & Dee Kline - "Every Posse & Crew"
Plump Djs - "Big Groovy Fucker"
General Midi - "The Westerner"
Dj Icey - "Wanna Do It"
Belushi - "Evolution"
Proper Flithy Naughty - "Stitch Up"
Plump Djs - "Fever"
Funkaholics - "Sneaker"
Plump Djs - "Electric Disco"
De-Phazz Feat. Pat Appleton - "The Mambo Craze" (Tribal Vocoder mix)
Primitive Urges - "Untitled"
Dj Technique - "My Definition" (Lee Combs Acid House Breaks Mix)
Soul Of Man - "Scatterbox"
Stakker Humanoid - "Humanoid" (Plump Djs 2001 Re-Touch)
Mint Royale - "Take It Easy" (Plump Djs Mix)

Jonny
 

exergo

TRIBE Member
that is easily the best "free" cd i have ever gotten with a magazine....it's almost better than "a plump night out"..wich i paid $18 for and has 8 of the same tracks


go plump
 
tribe cannabis accessories silver grinders

vinder

TRIBE Member
wicked mix, thanks for the tip chris!!

anyone happen to have a cue file for this by chance? or maybe the times of the tracks?
 

RuffRyda

TRIBE Member
Originally posted by vinder
anyone happen to have a cue file for this by chance? or maybe the times of the tracks?
here ya go. anyone know where i can find this bad boy?

PERFORMER "Plump DJs"
TITLE "Elastic Breaks"
FILE "Plump DJs - Elastic Breaks.mp3" MP3
TRACK 01 AUDIO
PERFORMER "Plump DJs"
TITLE "Remember My Name"
INDEX 01 00:00:00
TRACK 02 AUDIO
PERFORMER "Elektronauts"
TITLE "Bumper (Plump DJs Vocal Mix)"
INDEX 01 01:16:05
TRACK 03 AUDIO
PERFORMER "Krafty Kuts"
TITLE "Dangerous (Instrumental Mix)"
INDEX 01 05:46:37
TRACK 04 AUDIO
PERFORMER "Freq Nasty and Dee Kline"
TITLE "Every Posse & Crew"
INDEX 01 07:58:25
TRACK 05 AUDIO
PERFORMER "Plump DJs"
TITLE "Big Groovy Fucker"
INDEX 01 12:21:57
TRACK 06 AUDIO
PERFORMER "General Midi"
TITLE "The Westerner"
INDEX 01 16:31:26
TRACK 07 AUDIO
PERFORMER "DJ Icey"
TITLE "Wanna Do It"
INDEX 01 19:21:11
TRACK 08 AUDIO
PERFORMER "Belushi"
TITLE "Evolution"
INDEX 01 21:26:11
TRACK 09 AUDIO
PERFORMER "Proper Filthy Naughty"
TITLE "Stich Up"
INDEX 01 23:44:71
TRACK 10 AUDIO
PERFORMER "Plump DJs"
TITLE "Fever"
INDEX 01 26:17:61
TRACK 11 AUDIO
PERFORMER "Funkaholics"
TITLE "Sneaker"
INDEX 01 31:02:52
TRACK 12 AUDIO
PERFORMER "Plump DJs"
TITLE "Electric Disco"
INDEX 01 33:56:33
TRACK 13 AUDIO
PERFORMER "De-Phazz feat. Pat Appleton"
TITLE "The Mambo Craze (Tribal Vocoder Mix)"
INDEX 01 37:39:05
TRACK 14 AUDIO
PERFORMER "Primitive Urges"
TITLE "Untitled"
INDEX 01 39:54:61
TRACK 15 AUDIO
PERFORMER "DJ Technique"
TITLE "My Definition (Lee Coombs Acid House Breaks Mix)"
INDEX 01 43:47:48
TRACK 16 AUDIO
PERFORMER "Soul of Man"
TITLE "Scatterbox"
INDEX 01 47:02:50
TRACK 17 AUDIO
PERFORMER "Plump DJs"
TITLE "Scram"
INDEX 01 50:01:74
TRACK 18 AUDIO
PERFORMER "Stakker"
TITLE "Stakker Humanoid (Plump DJs 2001 Re-Touch)"
INDEX 01 54:55:48
TRACK 19 AUDIO
PERFORMER "Mint Royale"
TITLE "Take It Easy (Plump DJs Mix)"
INDEX 01 57:29:33
 
Top